pugwashtheband
album America  - Perspective mp3 download

album America - Perspective mp3 download

Genre: Rock / Blues
Performer: America
Album: Perspective
Country: Germany
Released: 1997
Style: Soft Rock, Prog Rock, Pop Rock, Folk Rock
MP3 version ZIP size: 1133 mb
FLAC version ZIP size: 1699 mb
WMA version ZIP size: 1886 mb
Rating: 4.4
Votes: 803
Other Formats: RA AHX MIDI AAC ADX AUD MP4

After several years of failed albums and singles, America returned to the top ten in 1982 with their Russ Ballard-penned single, "You Can Do Magic". In an effort to recreate this success, America had Ballard produce their 1983 album, Your Move. The results of that collaboration, however, were not altogether successful on an artistic or a commercial level.

On America's next album, Perspective, the group went in a radically different direction.

Album Name Perspective. Music StyleFolk Rock. Members owning this album4. 2. See How the Love Goes. 3. Can't Fall Asleep to a Lullaby.

This method of making records would eventually cripple adult contemporary, making it sound way too slick and soulless, but here, the synths were simple enough to sound organic and there were other instruments that allowed them to breathe, plus the natural harmonies of Gerry Beckley and Dewey Bunnell.

America (Perspective). UMG (от лица компании "EMI"); Wixen Music Publishing, ASCAP, LatinAutor, LatinAutor - Warner Chappell, Warner Chappell, CMRRA, PEDL, UBEM" и другие авторские общества (4).

com/Perspective (America album). @" is a studio album by John Zorn and Thurston Moore.

This album only peaked at 185 on the Billboard album chart. It includes two minor hit singles: "Special Girl" which reached 106 on the Billboard singles chart and 16 on the Adult Contemporary chart; and "Can't Fall Asleep To A Lullabye" which hit 26 on the Adult Contemporary chart.

Tracklist

1 We Got All Night
2 See How The Love Goes
3 Can't Fall Asleep To A Lullabye
4 Special Girl
5 5th Avenue
6 (It's Like You) Never Left At All
7 Stereo
8 Lady With A Bluebird
9 Cinderella
10 Unconditional Love
11 Fallin' Off The World

Companies, etc.

  • Phonographic Copyright (p) – Capitol Records, Inc.
  • Phonographic Copyright (p) – EMI-Capitol Music Special Markets
  • Copyright (c) – EMI-Capitol Music Special Markets

Notes

℗ 1984 Capitol Records, Inc.
℗ © 1997 EMI-Capitol Music Special Markets.

Barcode and Other Identifiers

  • Barcode: 724381935729

Other versions

Category Artist Title (Format) Label Category Country Year
1C 064 2402161 America Perspective ‎(LP, Album) Capitol Records 1C 064 2402161 Germany 1984
2402161 America Perspective ‎(LP, Album) Capitol Records 2402161 France 1984
064 2402161 America Perspective ‎(LP, Album) Capitol Records 064 2402161 Spain 1984
ST 12370 America Perspective ‎(LP, Album) Capitol Records ST 12370 India 1984
IMD 5701 America Perspective ‎(Cass, Album) IMD IMD 5701 Saudi Arabia Unknown
Video:

Comments:
Anaginn
foobar2000 1.3.17 / Dynamic Range Meter 1.1.1log date: 2019-05-17 19:12:30--------------------------------------------------------------------------------Analyzed: America / Perspective [US 1997 CD]--------------------------------------------------------------------------------DR Peak RMS Duration Track--------------------------------------------------------------------------------DR11 -1.03 dB -14.20 dB 3:27 01-We Got All NightDR12 -1.30 dB -15.78 dB 3:17 02-See How The Love GoesDR11 -1.11 dB -15.43 dB 3:47 03-Can't Fall Asleep To A LullabyeDR12 -1.16 dB -14.91 dB 3:47 04-Special GirlDR12 -1.05 dB -15.44 dB 3:48 05-5th AvenueDR12 -0.94 dB -15.48 dB 3:25 06-(It's Like You) Never Left At AllDR12 -1.21 dB -16.01 dB 3:22 07-StereoDR13 -1.38 dB -16.46 dB 3:08 08-Lady With A BluebirdDR13 -1.14 dB -16.23 dB 3:58 09-CinderellaDR13 -1.10 dB -15.52 dB 3:08 10-Unconditional LoveDR12 -1.38 dB -15.89 dB 3:31 11-Fallin' Off The World--------------------------------------------------------------------------------Number of tracks: 11Official DR value: DR12Samplerate: 44100 HzChannels: 2Bits per sample: 16Bitrate: 858 kbpsCodec: ALAC================================================================================

Performer: The Ventures
Genre: Rock
Title: Super Psychedelics / $1,000,000 Weekend
Country: Russia
Released: 1996
Performer: The Seekers
Genre: World, Country
Title: Greatest Hits
Country: Canada
Released: 1985
Performer: Angela Carrasco
Genre: Latin
Title: Grandes Exitos 1
Released: 1993
Performer: Various
Genre: Rock / Pop
Title: A Year In Your Life 1964 Vol. 2
Released: 2001
Performer: The Kingston Trio
Genre: World, Country
Title: Sold Out / String Along
Country: US
Released: 1992
Performer: Anne Murray
Genre: Rock / Pop
Title: Favorites
Country: US
Released: 1985
Performer: Dean Martin
Genre: Pop
Title: Golden Memories
Country: US
Released: 1997
Performer: Dean Martin
Genre: Pop
Title: Merry Music Christmas
Country: US
Released: 1989
Performer: Andy Griffith
Genre: Audiobooks and files
Title: The Wit & Wisdom Of Andy Griffith
Country: US
Released: 1997
Performer: America
Genre: World, Country
Title: View From The Ground
Released: 1982
Performer: Nat King Cole
Genre: Jazz / Pop
Title: Unforgettable
Country: Canada
Performer: Peggy Lee
Genre: Jazz / Pop
Title: Extra Special!
Country: US