pugwashtheband
album Absu - B.V.I.T.R.I.O.L. mp3 download

album Absu - B.V.I.T.R.I.O.L. mp3 download

Genre: Rock
Performer: Absu
Album: B.V.I.T.R.I.O.L.
Country: US
Released: 1993
Style: Death Metal
MP3 version ZIP size: 1721 mb
FLAC version ZIP size: 1549 mb
WMA version ZIP size: 1677 mb
Rating: 4.4
Votes: 369
Other Formats: MMF MP3 AU MIDI MP1 APE AA

Reissue of the 1994 album with 3 live bonus tracks. 8 & 10 recorded live at "Van Dijck" - Merksplas, Belgium - April 21, 1995. 9 recorded live at "Zeche Carl" - Essen, Germany - April 26, 1995.

Tara is the fourth album by black metal band Absu. It was released on May 23, 2001, by Osmose Productions. It contains the In the Eyes of Ioldánach EP as bonus tracks. Early promotional material for the album stated that Mike Scaccia of Rigor Mortis/Ministry fame would contribute to the album but that did not occur.

Lyrical themes vary from myths and legends, weaponry, sorcery, alchemy, cosmology and beyond. By the sevenfold process, . L reigns No one can distress its southern point By the evidence, nature delivered two No one can disrupt their dual symmetry. Stare towards the heart – stare at the stone Your eye unveiled – your nucleus Writhe on the mace – skim on the throne Your vessel sealed – your inmost light.

ABSU выпустят сразу четыре сорта пива. 13 сен 2012 : Новое видео ABSU. 11 сен 2012 : Видео с выступления ABSU. However there is also Gothic Records version with the album title on the front cover. Picture LP limited to 800 copies (200 copies including a shirt and a patch). Reissued in 1994 by Osmose with different cover artwork.

Absu is an American extreme metal band from Dallas, Texas. Their demos and first album leaned towards death metal, but evolved more towards a black metal and thrash metal style which includes elements of Celtic and folk music (and later, elements of jazz fusion, progressive rock and psychedelic music) which the band calls "Mythological Occult Metal". Their lyrical themes are esoteric, including themes of Celtic, Sumerian and Mesopotamian myths and legends, alchemy, numerology, magick, and sorcery.

Band's List Thrash Black Absu Barathrum . Album Name Barathrum . Released date 01 December 1993. Labels Osmose Productions Gothic Records. Music StyleThrash Black. Members owning this album101. 1. An Involution of Thorns. 2. Descent to Acheron. 3. An Equinox of Fathomless Disheartenment.

com/Helstar 1 giorno fa. Phantom Lord. Angelus - Kneel Down And Pray (1991) Fear Factory - Demanufacture (1995).

Last album update: 15th April, 2019 Last news update: 25th January, 2019.

Tracklist

An Involution Of Thorns
Descent To Acheron (Evolving Into The Progression Of Woe)
An Equinox Of Fathomless Disheartenment
The Thrice Is Greatest To Ninnigal
Infinite And Profane Thrones
Fantasizing To The Third Of The Pagan Vision (Quoth The Sky, Nevermore Act II)
An Evolution Of Horns

Versions

Category Artist Title (Format) Label Category Country Year
Extreme and Obscure Conjurations 001 Absu B.V.I.T.R.I.O.L. ‎(CD, Album, Ltd, 1st) Gothic Records Extreme and Obscure Conjurations 001 US 1993
none Absu Barathrum: V.I.T.R.I.O.L. ‎(CD, Album, Ltd, RP, 2nd) Gothic Records none US 1993
Extreme and Obscure Conjurations 001 Absu Barathrum: V.I.T.R.I.O.L. ‎(CD, Album, Ltd, RP, 3rd) Gothic Records Extreme and Obscure Conjurations 001 US 1993
OPLP 020 Absu Barathrum: V.I.T.R.I.O.L. ‎(LP, Album) Osmose Productions OPLP 020 France 1993
OPCD 020 Absu Barathrum: V.I.T.R.I.O.L. ‎(CD, Album) Osmose Productions OPCD 020 France 1994
OPCD 020 Absu Barathrum: V.I.T.R.I.O.L. ‎(CD, Album, Promo) Osmose Productions OPCD 020 France 1994
013, not provided Absu Barathrum: V.I.T.R.I.O.L. ‎(Cass) Morbid Noizz Productions, Dża-Dża Records 013, not provided Poland 1994
OPCD 020 Ltd Absu Barathrum: V.I.T.R.I.O.L. ‎(CD, Album, Ltd, RE, RM) Osmose Productions OPCD 020 Ltd France 1997
ONSLAUGHT 009 Absu Barathrum: V.I.T.R.I.O.L. ‎(LP, Album, Ltd, Pic) Bestial Onslaught Productions ONSLAUGHT 009 US 2004
CRYPT 13 Absu Barathrum: V.I.T.R.I.O.L. ‎(3xLP, Album, RE, RM + Box, Ltd, Num) The Crypt CRYPT 13 US 2011
CRYPT 13 Absu Barathrum: V.I.T.R.I.O.L. ‎(3xLP, Album, RE, RM, Red + Box, Ltd, Num) The Crypt CRYPT 13 US 2011
CRYPT 13 Absu Barathrum: V.I.T.R.I.O.L. ‎(LP, Album, Ltd, RE) The Crypt CRYPT 13 US 2014
CRYPT 13 Absu Barathrum: V.I.T.R.I.O.L. ‎(LP, Album, Ltd, RE, RP, Cle) The Crypt CRYPT 13 US 2014
CRYPT 13 Absu Barathrum: V.I.T.R.I.O.L. ‎(LP, Album, Ltd, RE, RP, Whi) The Crypt CRYPT 13 US 2014
DARK 91 Absu Barathrum: V.I.T.R.I.O.L. ‎(CD, Album, RE, RM) Dark Symphonies DARK 91 US 2017
CRYPT 13 Absu Barathrum: V.I.T.R.I.O.L. ‎(LP, Album, Dlx, Ltd, RE, RM) The Crypt CRYPT 13 US 2018
CRYPT 13 Absu Barathrum: V.I.T.R.I.O.L. ‎(LP, Album, Dlx, Ltd, RE, RM, Blo) The Crypt CRYPT 13 US 2018
CRYPT 13 Absu Barathrum: V.I.T.R.I.O.L. ‎(LP, Album, Dlx, Ltd, RE, RM, Cle) The Crypt CRYPT 13 US 2018
Crypt 13 Absu Barathrum: V.I.T.R.I.O.L. ‎(LP, Album, Dlx, Ltd, RE, RM, Sil) The Crypt Crypt 13 US 2018
Video:

Comments:
The Sinners from Mitar
Fantastic sounding pressing, as usual from The Crypt. Dynamic Range scores:DR13 -1.39 dB -17.95 dB 2:57 01-An Involution Of ThornsDR11 -1.03 dB -13.96 dB 4:29 02-Descent To Archeron (Evolving Into The Progression Of Woe)DR11 -0.95 dB -13.77 dB 3:11 03-An Equinox Of Fathomless DisheartenmentDR11 -1.80 dB -14.95 dB 4:54 04-The Thrice Is Greatest To NinnigalDR11 -1.29 dB -14.54 dB 6:16 05-Infinite And Profane ThronesDR12 -0.50 dB -14.54 dB 5:24 06-Fantasizing To The Third Of The Pagan Vision (Quoth The Sky, Nevermore Act II)DR15 -4.29 dB -23.83 dB 3:04 07-An Evolution Of Horns

Tebei
I have a version that has the labels on the wrong sides of the vinyl. Anyone else??

Coiron
I have that one too. Seems the label and/or the printer made a lot of mistakes in that period.

Eayaroler
My fav BM release ever!

Performer: Absu
Genre: Rock
Title: Barathrum: V.I.T.R.I.O.L.
Country: US
Released: 1997
Performer: II D Extreme
Genre: Hip hop
Title: Up On The Roof
Country: US
Released: 1993
Performer: Extreme Incident
Genre: Other
album Obscure Heaven - Abstract mp3 download

Obscure Heaven - Abstract album mp3

Harsh Noise Wall, Abstract
Performer: Obscure Heaven
Genre: Electronic
Title: Abstract
Released: 2019
Performer: Obscure Anachronism
Genre: Rock
Title: Demo 2005
Released: 2005
album Absu - Absu mp3 download

Absu - Absu album mp3

Black Metal, Death Metal
Performer: Absu
Genre: Rock
Title: Absu
Released: 2009
Performer: Extreme
Genre: Rock
Title: Little Girls
Country: Japan
Released: 1989
album Obscure Heaven - Grey Autumn mp3 download

Obscure Heaven - Grey Autumn album mp3

Noise, Harsh Noise Wall
Performer: Obscure Heaven
Genre: Electronic
Title: Grey Autumn
Released: 2017
Performer: Gothic Sucks
Genre: Rock
Title: Split CD-R II
Performer: DJ Ruboy
Genre: Electronic
Title: Extreme
Released: 2015
album VFJ Project - Obscure mp3 download

VFJ Project - Obscure album mp3

Progressive House, Techno
Performer: VFJ Project
Genre: Electronic
Title: Obscure
Released: 2001
Performer: Obsecration
Genre: Rock
Title: Vault Of The Obscure Vortex
Released: 2003