pugwashtheband
album Christopher Cross - Greatest Hits Live mp3 download

album Christopher Cross - Greatest Hits Live mp3 download

Genre: Rock
Performer: Christopher Cross
Album: Greatest Hits Live
Country: US
Released: 1999
Style: Soft Rock
MP3 version ZIP size: 1722 mb
FLAC version ZIP size: 1999 mb
WMA version ZIP size: 1974 mb
Rating: 4.8
Votes: 921
Other Formats: DMF MP4 VQF MP1 FLAC RA MPC

Band Name Christopher Cross. Album Name Greatest Hits Live. Wydawcy CMC International. Styl muzycznyPop Rock. Zarejestrowanych posiada ten album0. 1. Never Be the Same. 3. Every Turn of the World.

Christopher Cross is the self-titled debut album by Christopher Cross, released in December 1979. Recorded in mid-1979, the album was one of the early digitally recorded albums, utilizing the 3M Digital Recording System. In 1981, it won the Grammy Award for Album of the Year, famously beating Pink Floyd's The Wall and it has been noted for being one of the most influential soft rock albums of the early 1980s. All tracks composed by Christopher Cross. Say You'll Be Mine" – 2:53.

Band Name Christopher Cross. Data de aparición 1999. Labels CMC International. Estilo MusicalPop Rock. Miembros poseen este álbum0.

Walking in Avalon, Christopher Cross’ seventh album released in 1998, is a double album package that contains Christopher's latest new studio album and Greatest Hits Live album together. In late 1999, CMC re-released the package as two single-album releases. The studio album is entitled Red Room, and the hits live release is Christopher Cross - Greatest Hits Live. Written and produced with Rob Meurer, and featuring t/co-producer Scott Frankfurt, the two-CD set comprises music.

CD - Sanctuary 15029). 20 years after Cross' first album was released, he took a look back at the high points of his career on the 1999 album Greatest Hits Live, with Cross and his band re-creating his most popular tunes on-stage at Santa Ana, California's Galaxy Theatre. Former Doobie Brothers vocalist Michael McDonald guests, playing keyboards and performing his distinctive backing vocals on "Ride Like the Wind.

Christopher Cross - Christopher Cross (1979).

sailing lyrics christopher cross. Christopher Cross - The Best Of Christopher Cross (Full Album). Think of Love Laura-Christopher Cross. Best Songs of Christopher Cross - Christopher Cross Greatest Hits Full Album 2018.

Формируйте собственную коллекцию записей Christopher Cross. Christopher Cross ‎(Cass, Album). Records, Warner Bros. It has a very slick radio-friendly sound but that is more to do with the production and mixing as live versions of these songs are edgier and more lively. It went on to sell millions and every restaurant, shop, radio station and home was playing it in the early 80s. You could say it was the 'Brothers In Arms' of the time!

Best Songs Of Christopher Cross 2018 - Christopher Cross Greatest Hits Full Album HQ Best Songs Of Christopher Cross 2018. Christopher Cross Sailing/All Right/Think Of Laura/Arthur's Theme Live Cal Vid. 2 years ago. Christopher Cross live in 2016 concert performs Sailing from five-time Grammy-winning self-titled 1979 debut album.

Tracklist Hide Credits

1 Never Be The Same 4:33
2 Sailing 4:13
3 Every Turn Of The World 3:57
4 Swept Away 4:00
5 Think Of Laura 3:00
6 Open Up My Window 4:22
7 Is There Something 5:13
8 Arthur's Theme (Best That You Can Do) 3:43
9 Ride Like The Wind 5:10
10 All Right 4:09
Bonus Studio Tracks
11 Walking In Avalon
Mixed By – Doug RiderProducer, Performer [Other Instrumentation] – Scott FrankfurtProducer, Written-By – Rob MeurerProducer, Written-By, Guitar, Vocals – Christopher Cross
4:56
12 Hunger
Mixed By – Doug RiderProducer, Performer [Other Instrumentation] – Scott FrankfurtProducer, Written-By – Rob MeurerProducer, Written-By, Guitar, Vocals – Christopher Cross
3:35

Companies, etc.

  • Phonographic Copyright (p) – CMC International Records
  • Copyright (c) – CMC International Records
  • Manufactured By – BMG Distribution
  • Distributed By – BMG Distribution

Credits

  • Artwork By [Art Direction] – Jena Petsch
  • Bass, Vocals – Chas Thompson (tracks: 1 to 10)
  • Drums – Jody Cortez (tracks: 1 to 10)
  • Guitar, Vocals – Christopher Cross
  • Keyboards, Vocals – Kiki Ebsen (tracks: 1 to 10), Michael McDonald (tracks: 1 to 10), Rob Meurer (tracks: 1 to 10)
  • Mastered By – Joe Gastwirt (tracks: 1 to 10)
  • Percussion, Guitar, Vocals – Gigi Worth (tracks: 1 to 10)
  • Photography – Dorit Thies
  • Recorded By, Mixed By – Mark Linett (tracks: 1 to 10)
  • Saxophone [Alto] – Joel Peskin (tracks: 1 to 10)

Notes

Tracks 1-10 recorded live at The Galaxy Theater, Santa Ana, California, March 10, 1998.

Tracks 11-12 are bonus studio tracks, recorded at Christopher's Place, Santa Barbara, California.

Barcode and Other Identifiers

  • Barcode (Text): 0 60768-62832-8

Other versions

Category Artist Title (Format) Label Category Country Year
BG2 86283 Christopher Cross Greatest Hits Live ‎(CD, Comp, Club) CMC International Records, Columbia Record Club BG2 86283 US 1999
Comments:
Leniga
foobar2000 1.3.17 / Dynamic Range Meter 1.1.1log date: 2018-04-13 20:06:12--------------------------------------------------------------------------------Analyzed: Christopher Cross / Greatest Hits Live--------------------------------------------------------------------------------DR Peak RMS Duration Track--------------------------------------------------------------------------------DR9 -0.21 dB -11.17 dB 4:52 01-Never Be The SameDR10 -0.22 dB -12.99 dB 4:20 02-SailingDR8 0.00 dB -9.90 dB 4:14 03-Every Turn Of The WorldDR12 -0.70 dB -15.99 dB 4:43 04-Swept AwayDR11 -0.34 dB -14.11 dB 3:35 05-Think Of LauraDR10 -0.35 dB -13.05 dB 4:25 06-Open Up My WindowDR9 -0.21 dB -11.39 dB 5:19 07-Is There SomethingDR8 -0.14 dB -10.31 dB 4:23 08-Arthur's Theme (Best That You Can Do)DR8 -0.19 dB -9.76 dB 5:44 09-Ride Like The WindDR8 -0.17 dB -9.69 dB 4:42 10-All RightDR8 -1.20 dB -11.19 dB 4:57 11-Walking In AvalonDR9 -0.40 dB -12.86 dB 3:49 12-HungerDR9 -0.21 dB -11.52 dB 5:55 13-Alibi--------------------------------------------------------------------------------Number of tracks: 13Official DR value: DR9Samplerate: 44100 HzChannels: 2Bits per sample: 16Bitrate: 910 kbpsCodec: ALAC================================================================================

Performer: Christopher Cross
Genre: Rock
Title: Ride Like The Wind / Sailing
Country: US
Released: 1979
album Laura Marling - Cross Your Fingers mp3 download

Laura Marling - Cross Your Fingers album mp3

Alternative Rock, Acoustic, Folk Rock, Indie Rock
Performer: Laura Marling
Genre: Rock / Pop / World, Country
Title: Cross Your Fingers
Country: UK
Released: 2008
Performer: Christopher Cross
Genre: Rock
Title: No Time For Talk
Country: Spain
Released: 1983
Performer: Sweet
Genre: Rock
Title: Greatest Hits - Live
Released: 1993
Performer: Christopher Cross
Genre: Rock / Pop
Title: I Will (Take You Forever)
Released: 1988
Performer: The McCourt Family
Genre: World, Country
Title: The Cradle To The Cross
Performer: Christopher Howell
Genre: Jazz / Audiobooks and files / Pop / Classical / World, Country / Screen
Title: Preview Disc - International Gold
Released: 1979
Performer: Christopher Cross
Genre: Pop
Title: Christopher Cross
Country: US
Performer: Christopher Cross
Genre: Electronic / Pop
Title: Ride Like The Wind (Remixes 2001)
Released: 2001
Performer: Various
Genre: Rock
Title: Gold Medal
Country: US
Released: 1980
Performer: Christopher Cross
Genre: Rock
Title: Love Is Love (In Any Language)
Country: Japan
Released: 1985
Performer: Christopher Cross
Genre: Rock / Pop
Title: A Chance For Heaven
Country: Europe
Released: 1984