pugwashtheband
album Michael McDonald - Take It To Heart mp3 download

album Michael McDonald - Take It To Heart mp3 download

Genre: Rock
Performer: Michael McDonald
Album: Take It To Heart
Country: US
Released: 1990
Style: Soft Rock, Pop Rock
MP3 version ZIP size: 1442 mb
FLAC version ZIP size: 1860 mb
WMA version ZIP size: 1948 mb
Rating: 4.9
Votes: 981
Other Formats: MOD DXD DMF AAC MPC VOX AU

Backing Vocals – David Pack, Sir Harry Bowens, Michael McDonald, Sweet Pea AtkinsonGuitar – Michael LandauProgrammed By, Sequenced By – David GamsonWritten-By – Seth SwirskyWritten-By, Programmed By, Sequenced By – Gardner Cole. Bass – Abraham LaborielDrums, Percussion – Jeff PorcaroGuitar – Michael LandauPercussion, Backing Vocals – Terry McMillanWritten-By, Backing Vocals – Chuck SabatinoWritten-By, Keyboards, Backing Vocals – Michael McDonald. Take It To Heart ‎(Cass, Album, Dol). WX 285C, 7599-25979-4.

Through the Many Winters, A Christmas Album is a 2005 Christmas album by Michael McDonald. It was one of the first in the longstanding series of annual seasonal albums commissioned and retailed by Hallmark Cards to have reliable sales figures published, despite being sold through Hallmark's 4,000 card franchise shops, rather than through normal record shops in the Billboard chart system.

Michael McDonald - Get The Word Started. 03. Michael McDonald - Love Can Break Your Heart. 04. Michael McDonald - Take It To Heart. 05. Michael McDonald - Tear It Up. 06. Michael McDonald - Lonely Talk. Michael McDonald - Take It To Heart (1990) FLAC/01. Michael McDonald - All We Go. lac - 3. 8. Michael McDonald - Take It To Heart (1990) FLAC/02. Michael McDonald - Get The Word Started. Michael McDonald - Take It To Heart (1990) FLAC/03. Michael McDonald - Take It To Heart (1990) FLAC/04. Michael McDonald - Take It To Heart (1990) FLAC/05. Michael McDonald - Tear It U. lac - 2. 0. Michael McDonald - Take It To Heart (1990) FLAC/06.

Take It To Heart By Michael McDonald - Digital Sheet Music. Includes 1 print + interactive copy. Take It To Heart digital sheet music. Contains printable sheet music plus an interactive, downloadable digital sheet music file. Title: Take It To Heart. By: Michael McDonald. Instruments: Voice, range: D4-D6 Piano Guitar.

Michael McDonald - Take It to Heart (1990). this album contains some truly great soul song macdonald at his best,take it to heart shows that going solo was no mistake,altho over ten years old it still sounds as fresh as the day it came off the printer. a must have for all soul lovers. by wonea07 Nov, 2006. Not a bad album from Michael McDonald. Although he doesn't sound as free as he could be, maybe its down to the material. Motown 1 is much better. Still some good stuff here.

The best albums fall under both categories, and that’s one of a hundred reasons why Michael McDonald’s Take It to Heart shouldn’t be anyone’s idea of a best album. It did not. Maybe the album’s many shortcomings matter to me now, as a 36-year-old who occasionally thinks about that time, worrying over those feelings like a lost tooth.

Tracklist

All We Got 5:45
Get The Word Started 5:40
Love Can Break Your Heart 4:54
Take It To Heart 5:57
Tear It Up 4:25
Lonely Talk 4:40
Searchin' For Understanding 3:42
Homeboy 4:35
No Amount Of Reason 4:37
One Step Away 4:12
You Show Me 4:59

Versions

Category Artist Title (Format) Label Category Country Year
9 25979-2 Michael McDonald Take It To Heart ‎(CD, Album) Reprise Records 9 25979-2 US 1990
WPCP-3508 Michael McDonald Take It To Heart ‎(CD, Album) Reprise Records WPCP-3508 Japan 1990
W2 25979 Michael McDonald Take It To Heart ‎(CD, Album) Reprise Records W2 25979 US 1990
7599-25979-2 Michael McDonald Take It To Heart ‎(CD, Album) Reprise Records 7599-25979-2 Europe 1990
7599-25979-2 Michael McDonald Take It To Heart ‎(CD, Album) Reprise Records 7599-25979-2 Europe 1990
9 25979-2 Michael McDonald Take It To Heart ‎(CD, Album, Club) Reprise Records 9 25979-2 US 1990
WX 285C, 7599-25979-4 Michael McDonald Take It To Heart ‎(Cass, Album) Reprise Records, Reprise Records WX 285C, 7599-25979-4 UK & Europe 1990
9 25979-4 , 4-25979 Michael McDonald Take It To Heart ‎(Cass, Album, Dol) Reprise Records, Reprise Records 9 25979-4 , 4-25979 US 1990
92 59794 Michael McDonald Take It To Heart ‎(Cass, Album, Dol) Reprise Records 92 59794 Canada 1990
7599-25979-1, WX 285 Michael McDonald Take It To Heart ‎(LP) Reprise Records, Reprise Records 7599-25979-1, WX 285 UK & Europe 1990
1-25979 Michael McDonald Take It To Heart ‎(LP) Reprise Records 1-25979 US 1990
92 59791 Michael McDonald Take It To Heart ‎(LP, Album) Reprise Records 92 59791 Canada 1990
LPNB 6974 Michael McDonald Take It To Heart ‎(LP, Album) Reprise Records LPNB 6974 Mexico 1990
1-25979 Michael McDonald Take It To Heart ‎(LP, Promo) Reprise Records 1-25979 US 1990
7599-25979-2 Michael McDonald Take It To Heart ‎(CD, Album) Reprise Records 7599-25979-2 Germany 1998
FRM 1150 Michael McDonald Take It To Heart ‎(CD, Album, Ltd, RE) Friday Music FRM 1150 US 2009
9 25979-2 Michael McDonald Take It To Heart ‎(CD, Album, RE) Reprise Records 9 25979-2 US Unknown
Video:

Comments:
Qutalan
foobar2000 1.3.17 / Dynamic Range Meter 1.1.1log date: 2018-06-01 19:27:47--------------------------------------------------------------------------------Analyzed: Michael McDonald / Take It To Heart [US 2009 Remaster]--------------------------------------------------------------------------------DR Peak RMS Duration Track--------------------------------------------------------------------------------DR12 0.00 dB -13.92 dB 5:38 01-All We GotDR16 0.00 dB -17.84 dB 5:41 02-Get The Word StartedDR12 0.00 dB -14.96 dB 4:56 03-Love Can Break Your HeartDR13 0.00 dB -14.82 dB 5:54 04-Take It To HeartDR15 0.00 dB -16.14 dB 4:26 05-Tear It UpDR12 0.00 dB -15.03 dB 4:42 06-Lonely TalkDR12 0.00 dB -14.43 dB 3:44 07-Searchin' For UnderstandingDR13 0.00 dB -14.73 dB 4:36 08-HomeboyDR12 0.00 dB -13.69 dB 4:39 09-No Amount Of ReasonDR13 0.00 dB -14.47 dB 4:14 10-One Step AwayDR11 -0.90 dB -14.45 dB 5:05 11-You Show Me--------------------------------------------------------------------------------Number of tracks: 11Official DR value: DR13Samplerate: 44100 HzChannels: 2Bits per sample: 16Bitrate: 814 kbpsCodec: ALAC================================================================================

Performer: Michael McDonald
Genre: Rock
Title: The Last Day
Released: 2016
Performer: Alastair McDonald
Genre: Other
Performer: Neil Young With Crazy Horse
Genre: Rock
Title: Zuma
Country: US
Released: 1975
Performer: McDonald & Giles
Genre: Rock
Title: McDonald & Giles
Country: UK
Released: 1971
Performer: Tina Turner
Genre: Rock / Pop
Title: Look Me In The Heart
Country: UK
Released: 1990
album Michael McDonald - The Ultimate Collection mp3 download

Michael McDonald - The Ultimate Collection album mp3

Disco, Pop Rock, Synth-pop, Soul
Performer: Michael McDonald
Genre: Electronic / Rock / Funk, Soul
Title: The Ultimate Collection
Country: US
Released: 2005
Performer: Country Joe McDonald
Genre: Rock / Blues / World, Country
Title: Superstitious Blues
Country: Germany
Released: 1991
Performer: Jim McDonald
Genre: World, Country
Title: Dreamers Dream
Released: 1987
album Michael McDonald - No Lookin' Back mp3 download

Michael McDonald - No Lookin' Back album mp3

Pop Rock, Soul, Ballad, Disco
Performer: Michael McDonald
Genre: Electronic / Rock / Funk, Soul
Title: No Lookin' Back
Country: US
Released: 1985
Performer: Шерали Жўраев
Genre: World, Country
Title: Куй Сеҳри
Country: USSR
Performer: Frank Sinatra
Genre: Jazz / Pop / Screen
Title: Star! / Rain In My Heart
Country: US
Released: 1968
Performer: Michael Bublé
Genre: Jazz
Title: Come Fly With Me
Country: US
Released: 2011